Классический форум-трекер
canvas not supported
Нас вместе: 4 151 303

ЗА РОДИНУ! Часть 1/4 (Ни шагу назад; Алька; Два бойца; Звезда; Мемуары ветеранов: моя война) (2007, 2006, 1943, 1949, 2006) 3хDVD9+1xDVD5 [Коллекционное издание]


 
 
RSS
Начать новую тему   Ответить на тему    Торрент-трекер NNM-Club -> Коллекции / *логии -> Отечественное кино (коллекции / *логии)
Автор Сообщение
almikl ®
Куратор Детского.
Модератор Видео.
RG Всё лучшее - детям!
Uploader 500+
Стаж: 13 лет 10 мес.
Сообщений: 4989
Ratio: 398.228
Поблагодарили: 118607
100%
Откуда: Дааалекое Подмосковье
russia.gif
ЗА РОДИНУ! Часть 1/4: Ни шагу назад; Алька; Два бойца; Звезда; Мемуары ветеранов: моя война - диск 1. КОЛЛЕКЦИОННОЕ ИЗДАНИЕ. 3хDVD9+1xDVD5
Описание:
Война всегда начинается внезапно. В 1941 году началась самая страшная - Великая Отечественная. День победы СССР над фашистской Германией в Великую Отечественную Войну был и остаётся одним из самых почитаемых праздников в нашей стране.
В серию сборников "За Родину" вошли фильмы наиболее полно передающие атмосферу того героического времени. Это и самые последние современные художественные фильмы о войне, документальная хроника военных лет и фильмы военного времени, ставшие классикой. Эти сборники будут интересны и молодому поколению и, безусловно, станут прекрасным подарком нашим любимым родителям.

Дополнительная информация: Это лицензионное издание на шестнадцати дисках, по четыре диска в коробке. Прилагаются сканы обложек каждой коробки с фильмом, каждой "супер-коробки", а также плакатов времён ВОВ, типа "Родина-Мать зовёт!", которыми комплектовалось это издание.

Жанр: Военный, Драма ; Документальный



Качество: DVD9
Формат: DVD Video
Видео: PAL 4:3 (720x576) VBR
Аудио: Russian (Dolby AC3, 2 ch)

Все релизы ЗА РОДИНУ! на NNM-CLUB
Ни шагу назад
Год выпуска: 2007
Производство: Россия
Слоган: «Они спасли мир от фашистских захватчиков.»
Жанр: драма, военный

Режиссер: Виталий Воробьев
Сценарий: Сергей Сергеев
Продюсер: Сергей Кучков
Оператор: Георгий Блинов
Композитор: Алексей Карпов

В ролях: Никита Зверев (Виктор Суханов), Ян Цапник (следователь НКВД), Андрей Фролов (Саша Прохоров), Максим Заусалин (Тёма Шальных), Александр Ильин мл. (Семен Ефимов), Антон Капанин (Стёпа Коврига), Игорь Салимонов (майор Вернер), Олег Мезенев (немецкий полковник)


Описание: Крупномасштабная военная драма, рассказывающая историю советского офицера-артиллериста Виктора Суханова (Никита Зверев), которого Великая Отечественная Война застаёт на западной границе СССР. В центре событий - молодые офицеры, оказавшиеся в первый день войны под обстрелом фашистов. Дважды попадая в плен, им удаётся дважды из него бежать. Всего за несколько первых дней войны героям предстояло пройти через многие испытания и потери. Они выдержали жестокий экзамен на мужество и стойкость, преданность и верность. Но лишь один из них останется в живых...

Премьера (РФ): 21 февраля 2008
Релиз на DVD: 23 июля 2012, «Новый Диск»


Качество: DVD5
Формат: DVD Video
Видео: PAL 4:3 (720x576) VBR
Аудио: Russian (Dolby AC3, 2 ch)

Субтитры: нет
Бонусы: нет
Title: Elements
Size: 4.37 Gb ( 4 580 728 KBytes ) - DVD-5
Enabled regions: 1, 2, 3, 4, 5, 6, 7, 8

VTS_01 :
Play Length: 01:42:46
Video: PAL 4:3 (704x576) VBR
Audio:
Russian (Dolby AC3, 2 ch)
Общее
Полное имя : G:\DVD\ZA_RODINU_1st_Boxed_Set\ZA_RODINU_1st_Boxed_Set__Ni_Shagu_Nazad__DVD5\VIDEO_TS\VTS_01_2.VOB
Формат : MPEG-PS
Размер файла : 1000 Мбайт
Продолжительность : 21 м.
Режим общего битрейта : Переменный
Общий поток : 6651 Кбит/сек

Видео
Идентификатор : 224 (0xE0)
Формат : MPEG Video
Версия формата : Version 2
Профиль формата : Main@Main
Параметр BVOP формата : Да
Параметр матрицы формата : Выборочная
Параметр GOP формата : Variable
Продолжительность : 21 м.
Вид битрейта : Переменный
Битрейт : 6326 Кбит/сек
Максимальный битрейт : 9568 Кбит/сек
Ширина : 720 пикселей
Высота : 576 пикселей
Соотношение сторон : 4:3
Частота кадров : 25,000 кадров/сек
Стандарт вещания : PAL
Цветовое пространство : YUV
Субдискретизация насыщенности : 4:2:0
Битовая глубина : 8 бит
Тип развёртки : Чересстрочная
Порядок развёртки : Нижнее поле первое
Метод сжатия : С потерями
Бит/(Пиксели*Кадры) : 0.610
Размер потока : 951 Мбайт (95%)

Аудио
Идентификатор : 189 (0xBD)-128 (0x80)
Формат : AC-3
Формат/Информация : Audio Coding 3
Расширение режима : CM (complete main)
Параметр Endianness формата : Big
Режим смешивания : DVD-Video
Продолжительность : 21 м.
Вид битрейта : Постоянный
Битрейт : 192 Кбит/сек
Каналы : 2 канала
Расположение каналов : Front: L R
Частота : 48,0 КГц
Битовая глубина : 16 бит
Метод сжатия : С потерями
Задержка видео : -232 мс.
Размер потока : 28,9 Мбайт (3%)

Меню


Просмотр доступен только для зарегистрированных пользователей
Алька (сериал)
Год выпуска: 2006
Производство: Россия
Жанр: драма, военный

Режиссер: Виктор Бутурлин
Сценарий: Андрей Дмитриев
Продюсер: Игорь Фатюшин
Оператор: Виктор Гончар
Композитор : Виктор Соболев
Художник: Светлана Колова

В ролях: Анна Фомина (Алька), Андрей Фролов (Алексндр Васильев), Наталья Терехова (Надя), Константин Воробьёв , Николай Иванов (Николай Иванович), Николай Реутов , Ирина Скобцева , Наталья Суркова


Описание: Когда началась война, выпускники хореографического училища решили пробиваться на фронт. Юные балерины Алька и Надя тоже мечтали о подвигах, но их вместо этого ждала рутинная работа санитарками в госпитале. Девушки все-таки добились своего и попали на передовую, где при первом же артобстреле Надя погибла. Оправившись после тяжелой контузии, Алька снова отправилась на передовую, в разведвзвод морской пехоты. Она получила первое задание — добыть «языка»…



Качество: DVD9
Формат: DVD Video
Видео: PAL 4:3 (720x576) VBR
Аудио: Russian (Dolby AC3, 2 ch)

Субтитры: нет
Бонусы: нет
Title: Elements
Size: 7.02 Gb ( 7 361 734 KBytes ) - DVD-9
Enabled regions: 1, 2, 3, 4, 5, 6, 7, 8

VTS_01 :
Play Length: 00:51:14+00:47:55+00:49:55+00:51:35
Video: PAL 4:3 (704x576) VBR
Audio:
English (Dolby AC3, 6 ch)
Общее
Полное имя : G:\DVD\ZA_RODINU_1st_Boxed_Set\ZA_RODINU_1st_Boxed_Set__Al`ka__DVD9\VIDEO_TS\VTS_01_2.VOB
Формат : MPEG-PS
Размер файла : 1000 Мбайт
Режим общего битрейта : Переменный

Видео
Идентификатор : 224 (0xE0)
Формат : MPEG Video
Версия формата : Version 2
Профиль формата : Main@Main
Параметр BVOP формата : Да
Параметр матрицы формата : По умолчанию
Параметр GOP формата : M=3, N=15
Вид битрейта : Переменный
Максимальный битрейт : 9641 Кбит/сек
Ширина : 720 пикселей
Высота : 576 пикселей
Соотношение сторон : 4:3
Частота кадров : 25,000 кадров/сек
Стандарт вещания : PAL
Цветовое пространство : YUV
Субдискретизация насыщенности : 4:2:0
Битовая глубина : 8 бит
Тип развёртки : Чересстрочная
Порядок развёртки : Верхнее поле первое
Метод сжатия : С потерями

Аудио
Идентификатор : 189 (0xBD)-128 (0x80)
Формат : AC-3
Формат/Информация : Audio Coding 3
Расширение режима : CM (complete main)
Параметр Endianness формата : Big
Режим смешивания : DVD-Video
Вид битрейта : Постоянный
Битрейт : 448 Кбит/сек
Каналы : 6 каналов
Расположение каналов : Front: L C R, Side: L R, LFE
Частота : 48,0 КГц
Битовая глубина : 16 бит
Метод сжатия : С потерями
Задержка видео : -320 мс.

Меню



Просмотр доступен только для зарегистрированных пользователей
Два бойца
Год выпуска: 1943
Производство: СССР
Жанр: драма, мелодрама, военный

Режиссер: Леонид Луков
Сценарий: Евгений Габрилович, Лев Славин
Оператор: Александр Гинцбург
Композитор : Никита Богословский
Художник: Владимир Каплуновский

В ролях: Марк Бернес (Аркадий), Борис Андреев (Саша), Вера Шершнёва (Таня), Янина Жеймо (сестра), Максим Штраух (профессор), Иван Кузнецов (Галанин), Степан Крылов (майор Рудой), Лаврентий Масоха (Окулита)


Описание: Фильм снят во время войны по повести Льва Славина «Мои земляки». Искренний и правдивый рассказ о дружбе Аркадия Дзюбина, неунывающего, лихого и бедового парня из Одессы, и Саши Свинцова — «Саши с Уралмаша».

Премьера (мир): 6 октября 1943, ...


Звезда
Год выпуска: 1949
Производство: СССР
Жанр: драма, военный

Режиссер: Александр Иванов
Сценарий: Павел Фурманский, Эммануил Казакевич
Оператор: Сергей Иванов, Владимир Рапопорт
Композитор : Венедикт Пушков
Художник: Семен Малкин

В ролях: Анатолий Вербицкий (лейтенант Травкин), Алексей Покровский (Мещеряков), Ирина Радченко (Катя Симакова), Лидия Сухаревская (Улыбышева), Олег Жаков (Сербиченко), Александр Хлопотов (Ковалев), Мовсум Санани (Алиев), Николай Крючков (Мамочкин)


Описание: О маленькой группе разведчиков, которая ушла в тыл врага, сумела передать необходимые сведения, но не смогла вернуться назад. Время действия — Великая Отечественная.

Зрители: СССР 28.9 млн
Премьера (мир): 21 сентября 1953
Релиз на DVD: 8 сентября 2005, «Союз-Видео», ...


Качество: DVD9
Формат: DVD Video
Видео: PAL 4:3 (720x576) VBR (Оба фильма)
Аудио: Russian (Dolby AC3, 2 ch) (Оба фильма)
Субтитры: нет
Бонусы: нет
Title: Elements
Size: 7.62 Gb ( 7 992 534 KBytes ) - DVD-9
Enabled regions: 1, 2, 3, 4, 5, 6, 7, 8

VTS_01 :
Play Length: 00:00:30
Video: PAL 4:3 (704x576) VBR

VTS_02 :
Play Length: 01:14:57
Video: PAL 4:3 (704x576) VBR
Audio:
English (Dolby AC3, 2 ch)

VTS_03 :
Play Length: 01:30:39
Video: PAL 4:3 (704x576) VBR
Audio:
English (Dolby AC3, 2 ch)
Общее
Полное имя : G:\DVD\ZA_RODINU_1st_Boxed_Set\ZA_RODINU_1st_Boxed_Set__Dva_Boytsa_+_Zvezda(1949)__DVD9\VIDEO_TS\VTS_02_2.VOB
Формат : MPEG-PS
Размер файла : 1000 Мбайт
Продолжительность : 22 м.
Режим общего битрейта : Переменный
Общий поток : 6354 Кбит/сек

Видео
Идентификатор : 224 (0xE0)
Формат : MPEG Video
Версия формата : Version 2
Профиль формата : Main@Main
Параметр BVOP формата : Да
Параметр матрицы формата : Выборочная
Параметр GOP формата : M=3, N=12
Продолжительность : 22 м.
Вид битрейта : Переменный
Битрейт : 6036 Кбит/сек
Максимальный битрейт : 8500 Кбит/сек
Ширина : 720 пикселей
Высота : 576 пикселей
Соотношение сторон : 4:3
Частота кадров : 25,000 кадров/сек
Стандарт вещания : PAL
Цветовое пространство : YUV
Субдискретизация насыщенности : 4:2:0
Битовая глубина : 8 бит
Тип развёртки : Чересстрочная
Порядок развёртки : Верхнее поле первое
Метод сжатия : С потерями
Бит/(Пиксели*Кадры) : 0.582
Размер потока : 950 Мбайт (95%)

Аудио
Идентификатор : 189 (0xBD)-128 (0x80)
Формат : AC-3
Формат/Информация : Audio Coding 3
Расширение режима : CM (complete main)
Параметр Endianness формата : Big
Режим смешивания : DVD-Video
Продолжительность : 22 м.
Вид битрейта : Постоянный
Битрейт : 192 Кбит/сек
Каналы : 2 канала
Расположение каналов : Front: L R
Частота : 48,0 КГц
Битовая глубина : 16 бит
Метод сжатия : С потерями
Задержка видео : -240 мс.
Размер потока : 30,2 Мбайт (3%)

Меню



Просмотр доступен только для зарегистрированных пользователей
Мемуары ветеранов: моя война - диск 1
Год выпуска: 2006
Жанр: Документальный
Продолжительность: 04:32:00

Описание: Этот телевизионный документальный проект, посвящённый участникам Великой Отечественной Войны, также представляет собой уникальный видео архив воспоминаний участников и свидетелей Великой Отечественной Войны - генералов, простых солдат, работников тыла. В каждой серии ветераны ВОВ вспоминают свою жизнь до войны и во время войны. Все сложности, радости и будни военного времени в рассказах участников событий. Война в воспоминании оставшихся в живых ветеранов. Это наша история, наша память и наша слава. [Извините, аннотацию писал какой-то потс неграмотный, но фильм познавательный - прим. релизера]

Качество: DVD9
Формат: DVD Video
Видео: PAL 4:3 (720x576) CBR
Аудио: Russian (Dolby AC3, 2 ch)

Субтитры: нет
Бонусы: нет
Title: Elements
Size: 7.16 Gb ( 7 511 026 KBytes ) - DVD-9
Enabled regions: 1, 2, 3, 4, 5, 6, 7, 8

VTS_01 :
Play Length: 00:27:51+00:27:11+00:25:55+00:25:24+00:27:20+00:27:13+00:27:57+00:28:00+00:27:15+00:27:55
Video: PAL 4:3 (704x576) CBR
Audio:
English (Dolby AC3, 2 ch)
Общее
Полное имя : G:\DVD\ZA_RODINU_1st_Boxed_Set\ZA_RODINU_1st_Boxed_Set__Memuary_Veteranov_Moya_Voyna_Disk1_DVD9\VIDEO_TS\VTS_01_2.VOB
Формат : MPEG-PS
Размер файла : 1000 Мбайт
Продолжительность : 9 м. 53 с.
Режим общего битрейта : Переменный
Общий поток : 14,1 Мбит/сек

Видео
Идентификатор : 224 (0xE0)
Формат : MPEG Video
Версия формата : Version 2
Профиль формата : Main@Main
Параметр BVOP формата : Да
Параметр матрицы формата : Выборочная
Параметр GOP формата : M=3, N=15
Продолжительность : 9 м. 53 с.
Вид битрейта : Переменный
Битрейт : 13,7 Мбит/сек
Максимальный битрейт : 6000 Кбит/сек
Ширина : 352 пикселя
Высота : 576 пикселей
Соотношение сторон : 4:3
Частота кадров : 25,000 кадров/сек
Стандарт вещания : PAL
Цветовое пространство : YUV
Субдискретизация насыщенности : 4:2:0
Битовая глубина : 8 бит
Тип развёртки : Чересстрочная
Порядок развёртки : Верхнее поле первое
Метод сжатия : С потерями
Бит/(Пиксели*Кадры) : 2.695
Размер потока : 966 Мбайт (97%)

Аудио
Идентификатор : 189 (0xBD)-128 (0x80)
Формат : AC-3
Формат/Информация : Audio Coding 3
Расширение режима : CM (complete main)
Параметр Endianness формата : Big
Режим смешивания : DVD-Video
Продолжительность : 9 м. 53 с.
Вид битрейта : Постоянный
Битрейт : 192 Кбит/сек
Каналы : 2 канала
Расположение каналов : Front: L R
Частота : 48,0 КГц
Битовая глубина : 16 бит
Метод сжатия : С потерями
Задержка видео : -200 мс.
Размер потока : 13,6 Мбайт (1%)

Меню


[align=center]
Просмотр доступен только для зарегистрированных пользователей
[/align]
Описание: Война всегда начинается внезапно. В 1941 году началась самая страшная - Великая Отечественная. День победы СССР над фашистской Германией в Великую Отечественную Войну был и остаётся одним из самых почитаемых праздников в нашей стране.
В серию сборников "За Родину" вошли фильмы наиболее полно передающие атмосферу того героического времени. Это и самые последние современные художественные фильмы о войне, документальная хроника военных лет и фильмы военного времени, ставшие классикой. Эти сборники будут интересны и молодому поколению и, безусловно, станут прекрасным подарком нашим любимым родителям.
Жанр: драма, военный
Продолжительность: ~ 4 x 01:33:22
Скриншоты:



Время раздачи: 24/7, до 10 скачавших
Все одноименные релизы в Клубе

Время раздачи: 24/7 (до появления первых 3-5 скачавших)
[NNM-Club.me]_[NNM-Club.ru]_ZA_RODINU_1st_Boxed_Set.torrent
 Торрент: Платиновая раздача  Зарегистрирован
 
Скачать


Примагнититься
 Зарегистрирован:   15 Янв 2019 10:34:07
 Размер:   26.3 GB  (
 Рейтинг:   4.5 (Голосов: 129)
 Поблагодарили:   369
 Проверка:   Оформление проверено модератором 15 Янв 2019 10:35:56
Как cкачать  ·  Как раздать  ·  Правильно оформить  ·  Поднять ратио!  
Aorum
Стаж: 10 лет 11 мес.
Сообщений: 232
Ratio: 32.031
Поблагодарили: 2429
100%
Откуда: Black Mesa
ussr.gif
Большущее спасибо за Ваши эксклюзивные сборки!

_________________
Я стар, я очень стар, я просто Superstar!
labean
Стаж: 11 лет
Сообщений: 51
Ratio: 8.068
100%
Искреннее человеческое спасибо.
San2014
Стаж: 8 лет 1 мес.
Сообщений: 13
Ratio: 10.206
0%
almikl
Ребята, встаньте на раздачу, дайте докачать фильм, огромное спасибо раздающим
almikl ®
Куратор Детского.
Модератор Видео.
RG Всё лучшее - детям!
Uploader 500+
Стаж: 13 лет 10 мес.
Сообщений: 4989
Ratio: 398.228
Поблагодарили: 118607
100%
Откуда: Дааалекое Подмосковье
russia.gif
San2014
Стоим! :)
danrecords
Стаж: 9 лет 5 мес.
Сообщений: 1131
Ratio: 12.54
Поблагодарили: 4
100%
Откуда: Беларусь, Минск
belarus.gif
Современной "планшетной" молодежи к просмотру обязательно...Чтобы помнили. Очень благодарен за релиз!

_________________
Слушать попсу нельзя!
danrecords
Стаж: 9 лет 5 мес.
Сообщений: 1131
Ratio: 12.54
Поблагодарили: 4
100%
Откуда: Беларусь, Минск
belarus.gif
Мы будем помнить!

_________________
Слушать попсу нельзя!
Показать сообщения:   
Начать новую тему   Ответить на тему    Торрент-трекер NNM-Club -> Коллекции / *логии -> Отечественное кино (коллекции / *логии) Часовой пояс: GMT + 3
Страница 1 из 1