Классический форум-трекер
canvas not supported
Нас вместе: 4 157 103

Ущелье духов (1991) VHSRip


 
 
RSS
Начать новую тему   Ответить на тему    Торрент-трекер NNM-Club -> Отечественное кино -> Отечественные Фильмы (HD*Rip/LQ, DVDRip, SATRip, VHSRip)
Автор Сообщение
Sедой ®
Стаж: 10 лет 11 мес.
Сообщений: 3057
Ratio: 5117.534
Поблагодарили: 646614
100%
Откуда: Донецк
Ущелье духов (1991) VHSRip
Производство: Россия, Туркменистан / Мосфильм, Туркменфильм
Жанр: Боевик, Военный

Режиссер: Сергей Нилов
Актеры: Александр Казаков, Вадим Степашкин, Владислав Толдыков, Виктор Павлюченков, Денис Банников, Мулькаман Оразов, Вадим Пожарский, Александр Кузнецов

Описание:
О последней военной операции в Афганистане. Группа капитана Грачева получает задание захватить караван противника с оружием и наркотиками и разгромить одну из баз душманов. Пытаясь осмыслить суть этой странной и страшной войны группа встречает отчаянное сопротивление...

Сценарий к фильму написал писатель и военный корреспондент Александр Проханов, который уже до этого, в 1988 году, совместно с режиссёром Алексеем Салтыковым написали сценарий к "нашумевшей" киноповести "За всё заплачено".



Продолжительность: 01:21:33
Качество видео: VHSRip

Видео: Xvid, 720x544, ~2200 Kbps
Аудио: AC3, 2 ch, 192 Kbps
Общее
Полное имя : D:\Торренты\Ущелье духов.1991.VHSRip.avi
Формат : AVI
Формат/Информация : Audio Video Interleave
Размер файла : 1,37 Гбайт
Продолжительность : 1 ч. 21 м.
Общий поток : 2402 Кбит/сек
Программа кодирования : VirtualDubMod 1.5.10.3 (build 2550/release)
Библиотека кодирования : VirtualDubMod build 2550/release

Видео
Идентификатор : 0
Формат : MPEG-4 Visual
Профиль формата : Advanced Simple@L5
Параметр BVOP формата : 1
Параметр QPel формата : Нет
Параметр GMC формата : Без точки перехода
Параметр матрицы формата : Default (MPEG)
Идентификатор кодека : XVID
Идентификатор кодека/Подсказка : XviD
Продолжительность : 1 ч. 21 м.
Битрейт : 2200 Кбит/сек
Ширина : 720 пикс.
Высота : 544 пикс.
Соотношение сторон : 4:3
Частота кадров : 25,000 кадр/сек
Цветовое пространство : YUV
Подвыборка цветности : 4:2:0
Битовая глубина : 8 бит
Тип развёртки : Прогрессивная
Метод сжатия : С потерями
Бит/(Пиксели*Кадры) : 0.225
Размер потока : 1,25 Гбайт (92%)
Библиотека кодирования : XviD 1.2.1 (UTC 2008-12-04)

Аудио
Идентификатор : 1
Формат : AC-3
Формат/Информация : Audio Coding 3
Расширение режима : CM (complete main)
Идентификатор кодека : 2000
Продолжительность : 1 ч. 21 м.
Вид битрейта : Постоянный
Битрейт : 192 Кбит/сек
Каналы : 2 канала
Расположение каналов : Front: L R
Частота : 48,0 КГц
Битовая глубина : 16 бит
Метод сжатия : С потерями
Размер потока : 112 Мбайт (8%)
Выравнивание : Разделение по промежуткам
Продолжительность промежутка : 40 мс. (1,00 видеокадр)
Время предзагрузки промежутка : 500 ms
Скриншоты:


Все одноименные релизы в Клубе
Время раздачи: 24/7 по возможности
[NNM-Club.ru]_Ushchel'e duhov.1991.VHSRip.avi.torrent
 Торрент: Платиновая раздача  Зарегистрирован
 
Скачать


Примагнититься
 Зарегистрирован:   12 Ноя 2012 16:47:40
 Размер:   1.37 GB  (
 Рейтинг:   4.5 (Голосов: 72)
 Поблагодарили:   273
 Проверка:   Оформление проверено модератором 12 Ноя 2012 17:04:22
Как cкачать  ·  Как раздать  ·  Правильно оформить  ·  Поднять ратио!  
adonis72
Стаж: 10 лет 11 мес.
Сообщений: 7
Ratio: 1.558
48.53%
ukraine.gif
Классный фильм,спасибо!!!
Ganz23
Стаж: 10 лет 1 мес.
Сообщений: 412
Ratio: 4.444
13.38%
russia.gif
Худшей рекламы фильму, чем авторство Проханова и не придумаешь. Смотреть не буду по этому, у него с головой не в порядке.
vvivanov_perm
Стаж: 10 лет 4 мес.
Сообщений: 150
Ratio: 1.49
0.26%
интересные комментарии )))
icnu
Стаж: 7 лет 5 мес.
Сообщений: 87
Ratio: 19.882
100%
Ниже плинтуса, лучше не тратить время.
Показать сообщения:   
Начать новую тему   Ответить на тему    Торрент-трекер NNM-Club -> Отечественное кино -> Отечественные Фильмы (HD*Rip/LQ, DVDRip, SATRip, VHSRip) Часовой пояс: GMT + 3
Страница 1 из 1