Классический форум-трекер
canvas not supported
Нас вместе: 4 157 103

Лемони Сникет: 33 несчастья / Lemony Snicket's A Series of Unfortunate Events (2004) [1080p] BDRip


 
 
RSS
Начать новую тему   Ответить на тему    Торрент-трекер NNM-Club -> Зарубежное кино -> Зарубежные Фильмы (HD, FHD)
Автор Сообщение
FILVOVAN ®
Релизер. Uploader 200+
 
Стаж: 14 лет
Сообщений: 3689
Ratio: 696.368
Раздал: 218.8 TB
Поблагодарили: 317762
100%
nnm-club.gif
Лемони Сникет: 33 несчастья / Lemony Snicket's A Series of Unfortunate Events (2004) BDRip
Жанр: Фэнтези, Комедия, Приключения, Семейный

Описание:
В один скверный пасмурный день на юных Бодлеров — Вайолет, Клауса и их маленькую сестричку Солнышко — обрушились несчастья. Страшный пожар лишил их дома и любящих родителей. В жизни сирот появился опекун Граф Олаф, который, как оказалось, совсем не граф, а злой гений, актёр и мастер переодеваний, стремящийся завладеть наследством несчастных детишек…

Режиссер: Брэд Силберлинг
Актеры: Джим Керри, Лиам Эйкен, Эмили Браунинг, Кара Хоффман, Шелби Хоффман, Джуд Лоу, Тимоти Сполл, Кэтрин О’Хара, Билли Коннолли, Мэрил Стрип, Луис Гузман, Джэми Харрис, Крэйг Фергюсон, Дженнифер Кулидж, Джейн Адамс, Седрик 'Развлекатель', Боб Кленденин, Ленни Кларк, Фред Галло

Продолжительность: 01:47:58
Перевод: Дублированный
Язык субтитров: Русский, Английский (форсированный), Английский


Видеокодек: MPEG-4 AVC/H.264
Битрейт видео: ~8635 kbps
Размер кадра: 1920 х 1080
Качество видео: BDRip
Аудиокодек: AC3 5.1 / DTS
Аудио 1: Русский, AC3 5.1, 384 kbps, 48 kHz
Аудио 2: Английский, DTS 5.1, 1510 kbps, 48 kHz
Сэмпл: Ссылка
Общее
Уникальный идентификатор : 172325528520242632979390655395166084306 (0x81A4B086BD1A8AB9A01FEE794AE2DCD2)
Полное имя : Lemony.Snickets.A.Series.of.Unfortunate.Events.2004.1080p.mkv
Формат : Matroska
Версия формата : Version 2
Размер файла : 7,94 Гбайт
Продолжительность : 1 ч. 47 м.
Общий поток : 10,5 Мбит/сек
Дата кодирования : UTC 2012-06-02 15:42:15
Программа кодирования : mkvmerge v5.2.0 ('I can't explain') built on Dec 18 2011 18:12:03
Библиотека кодирования : libebml v1.2.3 + libmatroska v1.3.0

Видео
Идентификатор : 1
Формат : AVC
Формат/Информация : Advanced Video Codec
Профиль формата : High@L4.1
Параметр CABAC формата : Да
Параметр ReFrames формата : 4 кадра
Идентификатор кодека : V_MPEG4/ISO/AVC
Продолжительность : 1 ч. 47 м.
Битрейт : 8635 Кбит/сек
Ширина : 1920 пикселей
Высота : 1080 пикселей
Соотношение сторон : 16:9
Частота кадров : 23,976 кадра/сек
Цветовое пространство : YUV
Субдискретизация насыщенности : 4:2:0
Битовая глубина : 8 бит
Тип развёртки : Прогрессивная
Бит/(Пиксели*Кадры) : 0.174
Размер потока : 6,35 Гбайт (80%)
Библиотека кодирования : x264 core 125 r2200 999b753
Настройки программы : cabac=1 / ref=4 / deblock=1:0:0 / analyse=0x3:0x113 / me=umh / subme=8 / psy=1 / psy_rd=1.00:0.00 / mixed_ref=1 / me_range=16 / chroma_me=1 / trellis=1 / 8x8dct=1 / cqm=0 / deadzone=21,11 / fast_pskip=1 / chroma_qp_offset=-2 / threads=12 / lookahead_threads=2 / sliced_threads=0 / nr=0 / decimate=1 / interlaced=0 / bluray_compat=0 / constrained_intra=0 / bframes=3 / b_pyramid=2 / b_adapt=2 / b_bias=0 / direct=3 / weightb=1 / open_gop=0 / weightp=2 / keyint=240 / keyint_min=24 / scenecut=40 / intra_refresh=0 / rc_lookahead=50 / rc=2pass / mbtree=1 / bitrate=8635 / ratetol=1.0 / qcomp=0.60 / qpmin=0 / qpmax=69 / qpstep=4 / cplxblur=20.0 / qblur=0.5 / ip_ratio=1.40 / aq=1:1.00
Язык : English
Default : Да
Forced : Нет

Аудио #1
Идентификатор : 2
Формат : AC-3
Формат/Информация : Audio Coding 3
Расширение режима : CM (complete main)
Параметр Endianness формата : Big
Идентификатор кодека : A_AC3
Продолжительность : 1 ч. 47 м.
Вид битрейта : Постоянный
Битрейт : 384 Кбит/сек
Каналы : 6 каналов
Расположение каналов : Front: L C R, Side: L R, LFE
Частота : 48,0 КГц
Битовая глубина : 16 бит
Метод сжатия : С потерями
Размер потока : 297 Мбайт (4%)
Заголовок : DUB
Язык : Russian
Default : Да
Forced : Нет

Аудио #2
Идентификатор : 3
Формат : DTS
Формат/Информация : Digital Theater Systems
Идентификатор кодека : A_DTS
Продолжительность : 1 ч. 47 м.
Вид битрейта : Постоянный
Битрейт : 1510 Кбит/сек
Каналы : 6 каналов
Расположение каналов : Front: L C R, Side: L R, LFE
Частота : 48,0 КГц
Битовая глубина : 24 бит
Метод сжатия : С потерями
Размер потока : 1,14 Гбайт (14%)
Заголовок : Original
Язык : English
Default : Нет
Forced : Нет

Текст #1
Идентификатор : 4
Формат : UTF-8
Идентификатор кодека : S_TEXT/UTF8
Идентификатор кодека/Информация : UTF-8 Plain Text
Язык : Russian
Default : Нет
Forced : Нет

Текст #2
Идентификатор : 5
Формат : UTF-8
Идентификатор кодека : S_TEXT/UTF8
Идентификатор кодека/Информация : UTF-8 Plain Text
Заголовок : (forced)
Язык : English
Default : Нет
Forced : Нет

Текст #3
Идентификатор : 6
Формат : UTF-8
Идентификатор кодека : S_TEXT/UTF8
Идентификатор кодека/Информация : UTF-8 Plain Text
Язык : English
Default : Нет
Forced : Нет

Меню
00:00:00.000 : en:00:00:00.000
00:06:49.534 : en:00:06:49.534
00:12:48.643 : en:00:12:48.643
00:20:24.890 : en:00:20:24.890
00:28:22.367 : en:00:28:22.367
00:36:31.064 : en:00:36:31.064
00:42:30.840 : en:00:42:30.840
00:48:05.758 : en:00:48:05.758
00:54:32.060 : en:00:54:32.060
01:03:02.028 : en:01:03:02.028
01:08:20.263 : en:01:08:20.263
01:14:42.603 : en:01:14:42.603
01:19:35.688 : en:01:19:35.688
01:25:51.688 : en:01:25:51.688
01:30:05.609 : en:01:30:05.609
01:35:59.170 : en:01:35:59.170

Скриншоты:



Время раздачи: С 8:00 до 22:00 до 5 скачавших
[NNM-Club.ru]_Lemony.Snickets.A.Series.of.Unfortunate.Events.2004.1080p.mkv.torrent
 Торрент: Платиновая раздача  Зарегистрирован
 
Скачать


Примагнититься
 Зарегистрирован:   19 Апр 2021 10:29:39
 Размер:   7.94 GB  (
 Рейтинг:   4.8 (Голосов: 56)
 Поблагодарили:   199
 Проверка:   Оформление проверено модератором 19 Апр 2021 16:35:31
Как cкачать  ·  Как раздать  ·  Правильно оформить  ·  Поднять ратио!  
FILVOVAN ®
Релизер. Uploader 200+
 
Стаж: 14 лет
Сообщений: 3689
Ratio: 696.368
Раздал: 218.8 TB
Поблагодарили: 317762
100%
nnm-club.gif
Ждем BDRemux
Показать сообщения:   
Начать новую тему   Ответить на тему    Торрент-трекер NNM-Club -> Зарубежное кино -> Зарубежные Фильмы (HD, FHD) Часовой пояс: GMT + 3
Страница 1 из 1