Классический форум-трекер
canvas not supported
Нас вместе: 4 178 354

Ровно в три пятнадцать (1959) DVDRip


 
 
RSS
Начать новую тему   Ответить на тему    Торрент-трекер NNM-Club -> Мультфильмы -> Отечественные Мультфильмы 20-го века SD
Автор Сообщение
Алеся ®
Стаж: 11 лет 5 мес.
Сообщений: 154
Ratio: 111.762
Раздал: 212 GB
Поблагодарили: 6201
100%
ussr.gif
Ровно в три пятнадцать (1959) DVDRip
Производство: СССР
Жанр: Детский, Рисованная анимация

Режиссер: Евгений Мигунов, Борис Дежкин

Описание:
О приключениях членов "Клуба веселых человечков", отправляющихся на концерт в пионерский лагерь. Музыкальная сказка-шутка с участием Чипполино, Буратино, Петрушки и других героев.



Продолжительность: 00:20:00
Качество видео: DVDRip

Видео: DivX, 720x544 (4:3), ~1610 Kbps (0.164 bit/pixel)
Аудио: AC3, 2 ch, 192 Kbps

Полное имя: D:\Мои видеозаписи\Черновики\Ровно в три пятнадцать.avi
Формат: AVI
Формат/Информация: Audio Video Interleave
Размер файла: 260 Мбайт
Продолжительность: 20 м.
Общий поток: 1816 Кбит/сек

Видео
Идентификатор: 0
Формат: MPEG-4 Visual
Параметр BVOP формата: 1
Параметр QPel формата: Нет
Параметр GMC формата: Без точки перехода
Параметр матрицы формата: Default (H.263)
Режим смешивания: Сжатый битовый поток
Идентификатор кодека: DX50
Идентификатор кодека/Подсказка: DivX 5
Продолжительность: 20 м.
Битрейт: 1611 Кбит/сек
Ширина: 720 пикселей
Высота: 544 пикселя
Соотношение сторон: 4:3
Частота кадров: 25,000 кадров/сек
Цветовое пространство: YUV
Субдискретизация насыщенности: 4:2:0
Битовая глубина: 8 бит
Тип развёртки: Прогрессивная
Метод сжатия: С потерями
Бит/(Пиксели*Кадры): 0.164
Размер потока: 230 Мбайт (89%)
Библиотека кодирования: DivX 6.1.1 (UTC 2006-02-01)

Аудио
Идентификатор: 1
Формат: AC-3
Формат/Информация: Audio Coding 3
Расширение режима: CM (complete main)
Идентификатор кодека: 2000
Продолжительность: 20 м.
Вид битрейта: Постоянный
Битрейт: 192 Кбит/сек
Каналы: 2 канала
Расположение каналов: Front: L R
Частота: 48,0 КГц
Битовая глубина: 16 бит
Метод сжатия: С потерями
Размер потока: 27,5 Мбайт (11%)
Выравнивание: Соединение по промежуткам
Продолжительность промежутка: 40 мс. (1,00 видеокадр)
Скриншоты:



Все одноименные релизы в Клубе


Время раздачи: С 10:00 до 20:00 (по возможности)
[NNM-Club.ru]_Rovno v tri pyatnadtsat'.avi.torrent
 Торрент: Платиновая раздача  Зарегистрирован
 
Скачать


Примагнититься
 Зарегистрирован:   27 Дек 2011 20:39:23
 Размер:   260 MB  (
 Рейтинг:   4.9 (Голосов: 61)
 Поблагодарили:   198
 Проверка:   Оформление проверено модератором 14 Янв 2022 23:09:28
Как cкачать  ·  Как раздать  ·  Правильно оформить  ·  Поднять ратио!  
Keynol
Стаж: 10 лет 7 мес.
Сообщений: 155
Ratio: 21.657
38.52%
а можно скрины обновить?
Kalex
Администратор
Стаж: 14 лет 4 мес.
Сообщений: 40229
Ratio: 120.369
Поблагодарили: 14315
100%
nnm-club.gif
Keynol писал(а): Перейти к сообщению
а можно скрины обновить?

Да, можно, обновите, не возражаем и поддерживаем Вашу инициативу :приветствую:
Отреставрируем и восстановим всем Клубом!

_________________
NNMClub и IPv6/Teredo
... если преступников недостаточно, их надо создавать. Кому нужна нация, состоящая сплошь из законопослушных граждан? Какая от нее польза? А вот издайте законы, которые нельзя ни соблюдать, ни проводить в жизнь, ни объективно трактовать, и вы получите нацию нарушителей, а значит, сможете заработать на преступлениях... /Айн Рэнд, «Атлант расправил плечи»/
denver7979
Зам. Куратора Детского.
Модератор Видео.
RG Всё лучшее - детям!
Стаж: 11 лет 1 мес.
Сообщений: 10246
Ratio: 635.643
Раздал: 44.06 TB
Поблагодарили: 372381
100%
Откуда: Земля
ussr.gif
За восстановление скриншотов в релизе багодарочка - Сельский обыватель

_________________
§ Основной FAQ & Все ПравилаНабор в RG NNM-Club Всё для детей, пап и мам
* Все вопросы в ☛ ЛС по вашим релизам ☣
обязательно со ссылками на темы, о которых идёт речь ☺
Показать сообщения:   
Начать новую тему   Ответить на тему    Торрент-трекер NNM-Club -> Мультфильмы -> Отечественные Мультфильмы 20-го века SD Часовой пояс: GMT + 3
Страница 1 из 1