Классический форум-трекер
canvas not supported
Нас вместе: 4 077 850

Большой фильм про поросенка / Piglet's Big Movie (2003) HDTVRip [H.264/720p]


 
 
RSS
Начать новую тему   Ответить на тему    Торрент-трекер NNM-Club -> Мультфильмы -> Зарубежные Мультфильмы для детей
Автор Сообщение
ornellit ®
Стаж: 9 лет 10 мес.
Сообщений: 1754
Ratio: 197,8
Поблагодарили: 96545
100%
ukraine.gif
Большой фильм про поросенка / Piglet's Big Movie (2003) HDTVRip [H.264/720p]
Производство: США, Disneytoon Studios, Walt Disney Pictures
Жанр: мультфильм, мюзикл, комедия, детектив, приключения, семейный, рисованная анимация

Режиссер: Френсис Глебас
Актеры озвучки: Джон Фидлер, Джим Каммингс, Андрэ Стойка, Кэт Сауси, Никита Хопкинс, Питер Каллен, Кен Сэнсом, Том Уитли

Описание:
Друзья Пятачка отправились в Стоакровый Лес собирать мед, а его оставили дома, сказав ему, что он еще маленький. Когда Пух с друзьями вернулся, выяснилось, что Пятачок исчез. друзья пытаются найти Пятачка, используя его альбом воспоминаний...


Возраст: 0+ (для любой зрительской аудитории)
Рейтинг MPAA: G (нет возрастных ограничений)

Продолжительность: 01:14:49
Качество видео: HDTVRip
Перевод: Дублированный
Субтитры: Вшитые отключаемые

Видеокодек: AVC/H.264, 1276x720, ~5246 Kbps
Аудио 1: AC3, 2 ch, 192 Kbps - Русский дубляж, R5
Аудио 2: AC3, 6 ch, 384 Kbps - Английский

Общее
Уникальный идентификатор : 193319558150648959141154376104504729831 (0x916FFE1A3BFE75C0A4DEDBBCEA4420E7)
Полное имя : Piglet's.Big.Movie.2003.720p.HDTV.x264Rus.Eng.mkv
Формат : Matroska
Версия формата : Version 1
Размер файла : 3,04 Гбайт
Продолжительность : 1 ч. 14 м.
Общий поток : 5826 Кбит/сек
Название фильма : Piglet's Big Movie (2003)
Дата кодирования : UTC 2012-09-26 20:07:25
Программа кодирования : mkvmerge v2.1.0 ('Another Place To Fall') built on Aug 19 2007 13:40:07
Библиотека кодирования : libebml v0.7.7 + libmatroska v0.8.1

Видео
Идентификатор : 1
Формат : AVC
Формат/Информация : Advanced Video Codec
Профиль формата : High@L4.1
Параметр CABAC формата : Да
Параметр ReFrames формата : 9 кадров
Идентификатор кодека : V_MPEG4/ISO/AVC
Продолжительность : 1 ч. 14 м.
Битрейт : 5134 Кбит/сек
Ширина : 1276 пикселей
Высота : 720 пикселей
Соотношение сторон : 16:9
Режим частоты кадров : Постоянный
Частота кадров : 23,976 кадра/сек
Цветовое пространство : YUV
Субдискретизация насыщенности : 4:2:0
Битовая глубина : 8 бит
Тип развёртки : Прогрессивная
Бит/(Пиксели*Кадры) : 0.233
Размер потока : 2,68 Гбайт (88%)
Библиотека кодирования : x264 core 125 r2208 d9d2288
Настройки программы : cabac=1 / ref=9 / deblock=1:-1:-1 / analyse=0x3:0x133 / me=tesa / subme=10 / psy=1 / psy_rd=0.80:0.00 / mixed_ref=1 / me_range=24 / chroma_me=1 / trellis=2 / 8x8dct=1 / cqm=0 / deadzone=21,11 / fast_pskip=0 / chroma_qp_offset=-2 / threads=12 / lookahead_threads=2 / sliced_threads=0 / nr=0 / decimate=0 / interlaced=0 / bluray_compat=0 / constrained_intra=0 / bframes=8 / b_pyramid=2 / b_adapt=2 / b_bias=0 / direct=3 / weightb=1 / open_gop=0 / weightp=2 / keyint=250 / keyint_min=23 / scenecut=40 / intra_refresh=0 / rc_lookahead=60 / rc=crf / mbtree=1 / crf=15.5 / qcomp=0.75 / qpmin=0 / qpmax=69 / qpstep=4 / vbv_maxrate=50000 / vbv_bufsize=62500 / crf_max=0.0 / nal_hrd=none / ip_ratio=1.40 / aq=1:0.60
Язык : English
Default : Да
Forced : Нет

Аудио #1
Идентификатор : 2
Формат : AC-3
Формат/Информация : Audio Coding 3
Расширение режима : CM (complete main)
Параметр Endianness формата : Big
Идентификатор кодека : A_AC3
Продолжительность : 1 ч. 14 м.
Вид битрейта : Постоянный
Битрейт : 192 Кбит/сек
Каналы : 2 канала
Расположение каналов : Front: L R
Частота : 48,0 КГц
Битовая глубина : 16 бит
Метод сжатия : С потерями
Размер потока : 103 Мбайт (3%)
Язык : Russian
Default : Нет
Forced : Нет

Аудио #2
Идентификатор : 3
Формат : AC-3
Формат/Информация : Audio Coding 3
Расширение режима : CM (complete main)
Параметр Endianness формата : Big
Идентификатор кодека : A_AC3
Продолжительность : 1 ч. 14 м.
Вид битрейта : Постоянный
Битрейт : 384 Кбит/сек
Каналы : 6 каналов
Расположение каналов : Front: L C R, Side: L R, LFE
Частота : 48,0 КГц
Битовая глубина : 16 бит
Метод сжатия : С потерями
Размер потока : 205 Мбайт (7%)
Язык : English
Default : Да
Forced : Нет

Текст #1
Идентификатор : 4
Формат : UTF-8
Идентификатор кодека : S_TEXT/UTF8
Идентификатор кодека/Информация : UTF-8 Plain Text
Язык : Russian
Default : Да
Forced : Нет

Текст #2
Идентификатор : 5
Формат : UTF-8
Идентификатор кодека : S_TEXT/UTF8
Идентификатор кодека/Информация : UTF-8 Plain Text
Язык : English
Default : Нет
Forced : Нет
Скриншоты:

Все одноименные релизы в Клубе

Время раздачи: С 13:00 до 21:00 (до 5 скачавших)
Приятного просмотра!
[NNM-Club.ru]_Piglet's.Big.Movie.2003.720p.HDTV.x264Rus.Eng.mkv.torrent
 Торрент: Платиновая раздача  Зарегистрирован
 
Скачать


Примагнититься
 Зарегистрирован:   10 Сен 2019 21:33:14
 Размер:   3,04 GB  (
 Рейтинг:   4,8 (Голосов: 42)
 Поблагодарили:   175
 Проверка:   Оформление проверено модератором 11 Сен 2019 11:05:53
Как cкачать  ·  Как раздать  ·  Правильно оформить  ·  Поднять ратио!  
Как кино?
Стаж: 9 лет 11 мес.
Сообщений: 351
Ratio: 5,804
Поблагодарили: 94
100%
Откуда: OttYDA
krevedko.png
Трогательная лента с хорошим, счастливым концом. Без оговорок и сомнений.
И пусть всегда со всеми будет так!
Kalex
Администратор
Стаж: 12 лет
Сообщений: 32274
Ratio: 114,385
Поблагодарили: 13500
100%
nnm-club.gif
Торрент перерегистрирован в рамках акции Включаем DHT в древних раздачах
Теперь вам нужно его скачать и открыть в торрент-клиенте, указав в качестве места сохранения раздаваемый файл или папку.

_________________
NNMClub и IPv6/Teredo
... если преступников недостаточно, их надо создавать. Кому нужна нация, состоящая сплошь из законопослушных граждан? Какая от нее польза? А вот издайте законы, которые нельзя ни соблюдать, ни проводить в жизнь, ни объективно трактовать, и вы получите нацию нарушителей, а значит, сможете заработать на преступлениях... /Айн Рэнд, «Атлант расправил плечи»/
Stenly77
Uploader 100+
 
Стаж: 9 лет 9 мес.
Сообщений: 189
Ratio: 18,294
100%
Хм... Английская дорожка норм. Русская - только левый канал.

_________________
100 MB/s 100 MB/s 24x7
Показать сообщения:   
Начать новую тему   Ответить на тему    Торрент-трекер NNM-Club -> Мультфильмы -> Зарубежные Мультфильмы для детей Часовой пояс: GMT + 3
Страница 1 из 1