Классический форум-трекер
canvas not supported
Нас вместе: 4 077 850

Путь в тысячу миль / Riding Alone for Thousands of Miles / Qian li zou dan qi (2005) DVDRip


 
 
RSS
Начать новую тему   Ответить на тему    Торрент-трекер NNM-Club -> Зарубежное кино -> Азиатское кино (HD*Rip/LQ, DVDRip, SATRip, VHSRip)
Автор Сообщение
Starlight77 ®
Стаж: 10 лет
Сообщений: 53
Ratio: 32,866
Поблагодарили: 2963
100%
Откуда: planet Earth
Путь в тысячу миль / Riding Alone for Thousands of Miles / Qian li zou dan qi (2005) DVDRip
Год выпуска: 2005
Производство: Гонконг, Китай, Япония / Beijing New Picture Film Co., China Film Co-Production Corporation, EDKO Film
Жанр: Драма

Описание фильма:
Старый японец по имени Такада узнает, что его сын, с которым он в давнишней ссоре, в больнице при смерти. Жена сына, Ри, передает Такаде видеокассету, на которой записана прошлогодняя поездка умирающего сына в китайскую провинцию Юаннань, где тот записывал китайскую оперу в масках. Такада решает, что кассета дает ему подсказку о том, как помириться с сыном — он отправляется в Китай снять для сына ту самую оперу — «Одинокая поездка за тысячи миль», ради которой сын хотел отправиться в Китай в следующем году...
Этому приключению суждено открыть Такаде глаза на того человека, каким был его сын, на то, каким человеком является он, Такада, сам, а также вообще на людей и, в частности, на простых и добрых юаннаньских крестьян...

Режиссер: Чжан Имоу
Актеры: Кэн Такакура, Синобу Терадзима, Киити Накаи, Кен Накамото, Цзяминь Ли, Цзянь Вэнь, Лин Цю, Ли Бин Ли, Цзылян Чен, Чжечжу Хе

Продолжительность: 01:44:32
Качество видео: DVDRip
Перевод: Многоголосый закадровый



Дата мировой премьеры: 22 октября 2005

Видеокодек: XviD
Битрейт видео: ~1543 Kb/s
Размер кадра: 672x368
Аудиокодек: AC3 5.1
Битрейт аудио: 448 Kb/s
Говорят, понять - значит простить. Звучит несложно, но добиться понимания и прощения - все равно, что совершить тяжелый путь в тысячи миль. Японский рыбак Таката, человек суровый и нелюдимый, не видел брошенного им когда-то сына много лет, пока не узнал, что тот умирает от рака. Запоздало осознав, что сам вырвал из своей жизни самое дорогое, что в ней было, он решает заслужить прощение парня и примириться с ним перед тем, как жестокая судьба разлучит их навсегда. Но беда в том, что молодой человек не желает встречаться с отцом. И тогда, дабы доказать искренность своих чувств, герой обещает завершить то, что не успел сын - снять фильм о народных певцах китайской провинции Юннань. Не зная языка и не имея понятия о режиссуре, старый Таката отправляется в дальний путь - путь к сердцу самого близкого человека в мире...
Завоевав признание публики историческими эпосами о боевых искусствах ("Герой", "Дом летающих кинжалов"), в своем новом фильме мэтр китайского кинематографа Чжан Имоу раскрывается с необычной стороны - как тонкий психолог и лирик, знаток глубинных движений человеческой души. Благодаря его точной, лаконичной режиссуре и вдохновенной игре блестящих актеров эта выдающаяся драма о любви и прощении заслуживает почетного места в коллекции всякого уважающего себя поклонника восточного кинематографа.

  • Hong Kong Film Awards, 2007
    Лучший фильм Азии
  • San Diego Film Critics Society Awards, 2006
    Лучший иностранный фильм
    Лучший актер - Ken Takakura
  • Shanghai Film Critics Awards, 2006
    Фильм "за заслуги"
Общее
Полное имя : Riding_Alone_for_Thousands_of_Miles_(2005)_DVDRip_XviD_[NNM-Club].avi
Формат : AVI
Формат/Информация : Audio Video Interleave
Размер файла : 1,46 Гбайт
Продолжительность : 1 ч. 44 м.
Общий поток : 1998 Кбит/сек
Программа кодирования : VirtualDubMod 1.5.4.1 (build 2178/release)
Библиотека кодирования : VirtualDubMod build 2178/release

Видео
Идентификатор : 0
Формат : MPEG-4 Visual
Профиль формата : Advanced Simple@L5
Параметр BVOP формата : 1
Параметр QPel формата : Нет
Параметр GMC формата : Без точки перехода
Параметр матрицы формата : Выборочная
Идентификатор кодека : XVID
Идентификатор кодека/Подсказка : XviD
Продолжительность : 1 ч. 44 м.
Битрейт : 1543 Кбит/сек
Ширина : 672 пикселя
Высота : 368 пикселей
Соотношение сторон : 1,85:1
Частота кадров : 25,000 кадров/сек
Цветовое пространство : YUV
Субдискретизация насыщенности : 4:2:0
Битовая глубина : 8 бит
Тип развёртки : Прогрессивная
Метод сжатия : С потерями
Бит/(Пиксели*Кадры) : 0.250
Размер потока : 1,13 Гбайт (77%)
Библиотека кодирования : XviD 1.2.0.dev47 (UTC 2006-11-01)

Аудио
Идентификатор : 1
Формат : AC-3
Формат/Информация : Audio Coding 3
Расширение режима : CM (complete main)
Параметр Endianness формата : Big
Идентификатор кодека : 2000
Продолжительность : 1 ч. 44 м.
Вид битрейта : Постоянный
Битрейт : 448 Кбит/сек
Каналы : 6 каналов
Расположение каналов : Front: L C R, Side: L R, LFE
Частота : 48,0 КГц
Битовая глубина : 16 бит
Метод сжатия : С потерями
Размер потока : 335 Мбайт (22%)
Выравнивание : Разделение по промежуткам
Продолжительность промежутка : 96 мс. (2,40 видеокадра)
Время предзагрузки промежутка : 96 мс.
Язык : Russian
Скриншоты:

Время раздачи: 24/7 - круглосуточно
Реставрация от: Viсtоr
Riding_Alone_for_Thousands_of_Miles_(2005)_DVDRip_XviD_[NNM-Club].avi.torrent
 Торрент: Платиновая раздача  Зарегистрирован
 
Скачать


 Зарегистрирован:   10 Окт 2009 21:11:22
 Размер:   1,46 GB  (
 Рейтинг:   5 (Голосов: 13)
 Поблагодарили:   56
 Проверка:   Оформление проверено модератором 11 Окт 2009 10:26:10
Как cкачать  ·  Как раздать  ·  Правильно оформить  ·  Поднять ратио!  
Показать сообщения:   
Начать новую тему   Ответить на тему    Торрент-трекер NNM-Club -> Зарубежное кино -> Азиатское кино (HD*Rip/LQ, DVDRip, SATRip, VHSRip) Часовой пояс: GMT + 3
Страница 1 из 1