Классический форум-трекер
canvas not supported
Нас вместе: 4 077 850

Kiss - Sonic Boom (2009) [FLAC|Lossless]<Rock>


 
 
RSS
Начать новую тему   Ответить на тему    Торрент-трекер NNM-Club -> Rock, Alternative, Punk, Metal -> Hard Rock (Lossless)
Автор Сообщение
phose ®
Стаж: 10 лет 2 мес.
Сообщений: 37
Ratio: 33,543
Поблагодарили: 1189
0%
russia.gif
Kiss - Sonic Boom (2009)
Год: 2009
Жанр: Rock
Продолжительность: 00:43:05

Кодек: FLAC
Тип рипа: tracks + .cue
Битрейт: Lossless

Треклист:
01."Modern day delilah" , Paul Stanley) - 3:36
02."Russian Roulette" (Gene Simmons) - 4:32
03."Never Enough" (Paul Stanley) - 3:26
04."Yes I Know (Nobody's Perfect)" (Gene Simmons) - 3:01
05."Stand" (Paul Stanley) - 4:47
06."Hot and Cold" (Gene Simmons) - 3:34
07."All for the Glory" (Eric Singer) - 3:50
08."Danger Us" (Paul Stanley) - 4:21
09."I am an Animal'" (Gene Simmons) - 3:45
10."When Lightning Strikes" (Tommy Thayer) - 3:42
11."Say Yeah" (Paul Stanley) - 4:23
Код:
Exact Audio Copy V0.99 prebeta 5 from 4. May 2009

EAC extraction logfile from 2. October 2009, 18:29

Unknown Artist / Unknown Title

Used drive  : HL-DT-STDVDRAM GSA-H10A   Adapter: 0  ID: 1

Read mode               : Secure
Utilize accurate stream : Yes
Defeat audio cache      : Yes
Make use of C2 pointers : No

Read offset correction                      : 667
Overread into Lead-In and Lead-Out          : No
Fill up missing offset samples with silence : Yes
Delete leading and trailing silent blocks   : No
Null samples used in CRC calculations       : Yes
Used interface                              : Native Win32 interface for Win NT & 2000
Gap handling                                : Appended to previous track

Used output format              : User Defined Encoder
Selected bitrate                : 320 kBit/s
Quality                         : High
Add ID3 tag                     : No
Command line compressor         : D:\Programme\EAC\Exact Audio Copy\Flac\flac.exe
Additional command line options : -V -8 -T "artist=%a" -T "title=%t" -T "album=%g" -T "date=%y" -T "tracknumber=%n" -T "genre=%m" %s

TOC of the extracted CD

     Track |   Start  |  Length  | Start sector | End sector
    ---------------------------------------------------------
        1  |  0:00.00 |  3:37.11 |         0    |    16285
        2  |  3:37.11 |  4:32.58 |     16286    |    36743
        3  |  8:09.69 |  3:26.61 |     36744    |    52254
        4  | 11:36.55 |  3:02.29 |     52255    |    65933
        5  | 14:39.09 |  4:50.59 |     65934    |    87742
        6  | 19:29.68 |  3:36.24 |     87743    |   103966
        7  | 23:06.17 |  3:49.55 |    103967    |   121196
        8  | 26:55.72 |  4:22.10 |    121197    |   140856
        9  | 31:18.07 |  3:47.38 |    140857    |   157919
       10  | 35:05.45 |  3:45.06 |    157920    |   174800
       11  | 38:50.51 |  4:27.01 |    174801    |   194826

Track  1

     Filename D:\Programme\Bit Torrent\incoming\NEUE\Unknown Artist -  - Unknown Title\01 - Modern Day Delilah.wav

     Pre-gap length  0:00:02.00

     Peak level 97.7 %
     Track quality 99.9 %
     Test CRC 514C4A88
     Copy CRC 514C4A88
     Track not present in AccurateRip database
     Copy OK

Track  2

     Filename D:\Programme\Bit Torrent\incoming\NEUE\Unknown Artist -  - Unknown Title\02 - Russian Roulette.wav

     Pre-gap length  0:00:01.98

     Peak level 97.7 %
     Track quality 100.0 %
     Test CRC 0EEC8AC9
     Copy CRC 0EEC8AC9
     Track not present in AccurateRip database
     Copy OK

Track  3

     Filename D:\Programme\Bit Torrent\incoming\NEUE\Unknown Artist -  - Unknown Title\03 - Never Enough.wav

     Pre-gap length  0:00:00.76

     Peak level 97.7 %
     Track quality 100.0 %
     Test CRC D8297DB7
     Copy CRC D8297DB7
     Track not present in AccurateRip database
     Copy OK

Track  4

     Filename D:\Programme\Bit Torrent\incoming\NEUE\Unknown Artist -  - Unknown Title\04 - Yes I Know (Nobodys Perfect).wav

     Pre-gap length  0:00:00.88

     Peak level 97.7 %
     Track quality 100.0 %
     Test CRC 7387DB8C
     Copy CRC 7387DB8C
     Track not present in AccurateRip database
     Copy OK

Track  5

     Filename D:\Programme\Bit Torrent\incoming\NEUE\Unknown Artist -  - Unknown Title\05 - Stand.wav

     Pre-gap length  0:00:01.02

     Peak level 97.7 %
     Track quality 100.0 %
     Test CRC 0859D213
     Copy CRC 0859D213
     Track not present in AccurateRip database
     Copy OK

Track  6

     Filename D:\Programme\Bit Torrent\incoming\NEUE\Unknown Artist -  - Unknown Title\06 - Hot And Cold.wav

     Pre-gap length  0:00:00.97

     Peak level 97.2 %
     Track quality 100.0 %
     Test CRC 65044235
     Copy CRC 65044235
     Track not present in AccurateRip database
     Copy OK

Track  7

     Filename D:\Programme\Bit Torrent\incoming\NEUE\Unknown Artist -  - Unknown Title\07 - All For The Glory.wav

     Pre-gap length  0:00:01.29

     Peak level 97.7 %
     Track quality 100.0 %
     Test CRC 2AE6370F
     Copy CRC 2AE6370F
     Track not present in AccurateRip database
     Copy OK

Track  8

     Filename D:\Programme\Bit Torrent\incoming\NEUE\Unknown Artist -  - Unknown Title\08 - Danger Us.wav

     Peak level 97.7 %
     Track quality 100.0 %
     Test CRC 2BEAAEBE
     Copy CRC 2BEAAEBE
     Track not present in AccurateRip database
     Copy OK

Track  9

     Filename D:\Programme\Bit Torrent\incoming\NEUE\Unknown Artist -  - Unknown Title\09 - Im An Animal.wav

     Peak level 97.7 %
     Track quality 100.0 %
     Test CRC 063B7A3B
     Copy CRC 063B7A3B
     Track not present in AccurateRip database
     Copy OK

Track 10

     Filename D:\Programme\Bit Torrent\incoming\NEUE\Unknown Artist -  - Unknown Title\10 - When Lightning Strikes.wav

     Pre-gap length  0:00:00.40

     Peak level 97.7 %
     Track quality 100.0 %
     Test CRC CC5A2B19
     Copy CRC CC5A2B19
     Track not present in AccurateRip database
     Copy OK

Track 11

     Filename D:\Programme\Bit Torrent\incoming\NEUE\Unknown Artist -  - Unknown Title\11 - Say Yeah.wav

     Pre-gap length  0:00:01.56

     Peak level 97.7 %
     Track quality 99.9 %
     Test CRC 0DC3FBE5
     Copy CRC 0DC3FBE5
     Track not present in AccurateRip database
     Copy OK

None of the tracks are present in the AccurateRip database

No errors occurred

End of status report
Код:
AUDIOCHECKER v2.0 beta (build 457) - by Dester - opdester@freemail.hu
~~~~~~~~~~~~~~~~~~~~~~~~~~~~~~~~~~
-=== НЕ РЕДАКТИРУЙТЕ ЭТОТ ФАЙЛ! ===-

Путь: ...\Kiss - Sonic Boom (2009)

01 -=- 01 - Modern Day Delilah.flac -=- CDDA (100%)
02 -=- 02 - Russian Roulette.flac -=- CDDA (100%)
03 -=- 03 - Never Enough.flac -=- CDDA (100%)
04 -=- 04 - Yes I Know (Nobodys Perfect).flac -=- CDDA (100%)
05 -=- 05 - Stand.flac -=- CDDA (99%)
06 -=- 06 - Hot And Cold.flac -=- CDDA (99%)
07 -=- 07 - All For The Glory.flac -=- CDDA (99%)
08 -=- 08 - Danger Us.flac -=- CDDA (99%)
09 -=- 09 - Im An Animal.flac -=- CDDA (100%)
10 -=- 10 - When Lightning Strikes.flac -=- CDDA (100%)
11 -=- 11 - Say Yeah.flac -=- CDDA (100%)

Сводка 99,64% CDDA

199549620



Поглощение/вытеснение
Только с согласия релизера

DesideriuM

Реставрация от: Pashketan
[NNM-Club.ru]_Kiss - Sonic Boom (2009).torrent
 Торрент: Платиновая раздача  Зарегистрирован
 
Скачать


 Зарегистрирован:   06 Окт 2009 22:47:48
 Размер:   308 MB  (
 Рейтинг:   4,6 (Голосов: 17)
 Поблагодарили:   57
 Проверка:   Оформление проверено модератором 07 Окт 2009 06:25:24
Как cкачать  ·  Как раздать  ·  Правильно оформить  ·  Поднять ратио!  
Показать сообщения:   
Начать новую тему   Ответить на тему    Торрент-трекер NNM-Club -> Rock, Alternative, Punk, Metal -> Hard Rock (Lossless) Часовой пояс: GMT + 3
Страница 1 из 1