Классический форум-трекер
canvas not supported
Нас вместе: 4 144 424

D.Gray-man / Ди Грэй-мен [ТВ-1] [2006, TV, 52 из 103] DVDRip 576p Rus


 
 
RSS
Начать новую тему   Ответить на тему    Торрент-трекер NNM-Club -> Аниме с озвучкой -> Аниме с озвучкой (SD)
Автор Сообщение
Ampho_DnB ®
RG Аниме
Uploader 100+
Стаж: 9 лет
Сообщений: 3928
Ratio: 317.655
Поблагодарили: 91233
100%
Откуда: Душанбе
roody.gif
D.Gray-man / Ди Грэй-мен
Жанр: приключения, комедия, фэнтези
Тип: TV-сериал
Продолжительность: 52 из 103 эпизодов по 25 минут
Выпуск: c 03.10.2006 по 30.09.2008
Автор: Хосино Кацура
Снято по манге: D.Gray-man
Режиссер: Набэсима Осаму
Производство: TMS Entertainment
Информационные ссылки: AniDB || World Art || MAL || ANN
Релиз подготовлен студией РуАниме
  • Тип озвучки: Дублированный, профессиональный

Описание:
На дворе – очередная «самая страшная эпоха в истории человечества», пришедшаяся на этот раз на 19-е столетие. «Зло» здесь олицетворяют акума – создания Графа Миллениума, орудия уничтожения людей, состоящие из мертвой плоти и механического скелета, к которому крепится душа умершего человека. «Добро» – экзорцисты из Черного Ордена, защищающие человечество от истребления. Благодаря взаимодействию с Чистой Силой они могут противостоять орде акума. Чистая Сила раздроблена на 109 фрагментов, а ее первоисточник является целью поисков Графа: завладев им, он сумеет нейтрализовать экзорцистов.

Убитых горем людей всегда было много. Все они – потенциальные «клиенты» Графа. Стоит кому-то погрузиться в траур по поводу смерти ближнего, как является Граф – непременно со «скелетом». И если отчаявшийся человек поддастся на уговоры этого дьявола во плоти и призовет умершего, душа последнего вселится в «доспех», оболочкой для которого послужит как раз «убитый горем».

Виновником воплощения акума однажды становится Аллен Уокер, «мальчик с проклятой рукой» (там с рождения гнездится Чистая Сила), призывающий душу приемного отца Маны. Ему удается выжить после сделки с Графом, кроме того, проклятый Маной, он получает способность видеть души, прикрепленные к акума. Чтобы искупить вину перед отцом, Аллен собирается стать экзорцистом. А тут еще учитель подворачивается – генерал Черного Ордена Кросс Мариан.

После трех лет тренировок Кросс отправляет Аллена в штаб-квартиру Черного Ордена. Оригинальный во всем, генерал прощается с учеником ударом молотка по голове, оставив в «наследство» долги и голема-снитч Тимкампи…
Качество: DVDRip | Энкод: SOFCJ-Raws
Язык озвучки: Японский и Русский
Формат: MKV
Видео: x264, 1024x576, ~1 064 kbps, 23.976 fps
Аудио: AAC, 125 kbps, 44.1 kHz, 2 ch
Аудио: AAC, 192 kbps, 48.0 kHz, 2 ch
001. The Boy Who Hunts Akuma
002. The Dark Religious Organization
003. The Ghost Of Mater
004. Old Man Of The Land And Aria Of The Night Sky
005. Sing Me A Lullaby
006. Those Who Invite Disaster
007. The Tombstone Of Memories
008. The Destruction Of The Dark Order!?
009. The Rewinding Town
010. The Misfortunate Woman's Innocence
011. Miranda Lotto's Feelings
012. And Then Snow Fell In The Town...
013. Coat And Resolution
014. The Leaf Of Revival
015. The End Of The Snowstorm
016. The Millenium Swordsman
017. The Pride Of The Swordsmen
018. Lenalee's Love
019. The Vampire Of The Old Castle
020. Do Your Best, Mr. Exorcist
021. Krory, Attack
022. Eliade's Truth
023. The Vampire I Loved
024. Krory's Journey
025. General's Chain
026. Beginning to the End
027. My Master, General Cross
028. Exorcist Krory
029. The Person Who Sells Souls (Part 1)
030. The Person Who Sells Souls (Part 2)
031. Miranda's Lost Child
032. Mysterious Ghost Ship
033. The Village Where the Witch Lives (Part 1)
034. The Village Where the Witch Lives (Part 2)
035. The Exorcist Who Probably Will Wait for the Wind
036. Register of Darkness (with Beam)
037. The Neighborhood Bell ~Charity Bell~
038. Froi Tiedoll
039. Silent Casket
040. Rose of the Repose of Souls
041. The New Assassin
042. Black Cat's Trap
043. Wandering Stone Statue
044. Samurai Girl's Iron Fan
045. Mysterious Mansion
046. Silver Illusion
047. Crystal Girl
048. The Trembling Compatible User
049. Lulubell-sama's Bell
050. Wholehearted Thinking
051. Departure, to the East
052. Attack
General
Unique ID : 15937576435736631891401766765551259408 (0xBFD772F960353A12CDD7E050CA98F10)
Complete name : D.Gray-man\D.Gray-man - 001 (DVDRip 1024x576 x264 AAC).mkv
Format : Matroska
Format version : Version 4
File size : 227 MiB
Duration : 22 min 54 s
Overall bit rate : 1 387 kb/s
Encoded date : UTC 2020-12-18 19:49:46
Writing application : mkvmerge v51.0.0 ('I Wish') 64-bit
Writing library : libebml v1.4.0 + libmatroska v1.6.2

Video
ID : 1
Format : AVC
Format/Info : Advanced Video Codec
Format profile : High@L3
Format settings : 1 Ref Frames
Format settings, CABAC : No
Format settings, Reference : 1 frame
Codec ID : V_MPEG4/ISO/AVC
Duration : 22 min 54 s
Bit rate : 1 064 kb/s
Width : 1 024 pixels
Height : 576 pixels
Display aspect ratio : 16:9
Frame rate mode : Constant
Frame rate : 23.976 (24000/1001) FPS
Original frame rate : 23.976 (23976/1000) FPS
Color space : YUV
Chroma subsampling : 4:2:0
Bit depth : 8 bits
Scan type : Progressive
Bits/(Pixel*Frame) : 0.075
Stream size : 175 MiB (77%)
Writing library : x264 core 148 r2665 a01e339
Encoding settings : cabac=0 / ref=1 / deblock=1:0:0 / analyse=0x3:0x113 / me=hex / subme=7 / psy=1 / psy_rd=1.00:0.00 / mixed_ref=0 / me_range=16 / chroma_me=1 / trellis=1 / 8x8dct=1 / cqm=0 / deadzone=21,11 / fast_pskip=1 / chroma_qp_offset=-2 / threads=3 / lookahead_threads=1 / sliced_threads=0 / nr=0 / decimate=1 / interlaced=0 / bluray_compat=0 / constrained_intra=0 / bframes=0 / weightp=2 / keyint=250 / keyint_min=23 / scenecut=40 / intra_refresh=0 / rc_lookahead=40 / rc=abr / mbtree=1 / bitrate=1064 / ratetol=1.0 / qcomp=0.60 / qpmin=0 / qpmax=69 / qpstep=4 / ip_ratio=1.40 / aq=1:1.00
Default : Yes
Forced : No

Audio #1
ID : 2
Format : AAC LC
Format/Info : Advanced Audio Codec Low Complexity
Codec ID : A_AAC-2
Duration : 22 min 54 s
Bit rate : 192 kb/s
Channel(s) : 2 channels
Channel layout : L R
Sampling rate : 48.0 kHz
Frame rate : 46.875 FPS (1024 SPF)
Compression mode : Lossy
Stream size : 31.0 MiB (14%)
Language : Russian
Default : Yes
Forced : No

Audio #2
ID : 3
Format : AAC LC
Format/Info : Advanced Audio Codec Low Complexity
Codec ID : A_AAC-2
Duration : 22 min 53 s
Bit rate : 125 kb/s
Channel(s) : 2 channels
Channel layout : L R
Sampling rate : 44.1 kHz
Frame rate : 43.066 FPS (1024 SPF)
Compression mode : Lossy
Stream size : 20.5 MiB (9%)
Language : Japanese
Default : No
Forced : No


Время раздачи: До первых сидов
[NNMClub.to]_D.Gray-man.torrent
 Торрент:   Зарегистрирован
 
Зарегистрируйтесь и скачайте торрент!
70.4 KB

Примагнититься
 Зарегистрирован:   13 Янв 2021 21:21:02
 Размер:   13.2 GB  (
 Рейтинг:   5 (Голосов: 11)
 Поблагодарили:   17
 Проверка:   Оформление проверено модератором 13 Янв 2021 21:21:55
Как cкачать  ·  Как раздать  ·  Правильно оформить  ·  Поднять ратио!  
ElSwanko
Куратор Аниме
Модератор Музыки
Стаж: 14 лет 4 мес.
Сообщений: 15608
Ratio: 967.418
Поблагодарили: 66201
100%
Откуда: ур-пространство преконтинуума
roody.gif
Перенести в архив потом существующую раздачу.

_________________
Правила: Аниме, Манга, OST || Музыка
Помощь: Скриншоты || MediaInfo || auCDtect
Ampho_DnB ®
RG Аниме
Uploader 100+
Стаж: 9 лет
Сообщений: 3928
Ratio: 317.655
Поблагодарили: 91233
100%
Откуда: Душанбе
roody.gif
Серии будут добавляться по мере готовности на студии.
Rixot
Стаж: 1 мес. 28 дней
Сообщений: 2
Ratio: 0
0%
а почему 125 kbps?
Ampho_DnB ®
RG Аниме
Uploader 100+
Стаж: 9 лет
Сообщений: 3928
Ratio: 317.655
Поблагодарили: 91233
100%
Откуда: Душанбе
roody.gif
Rixot писал(а): Перейти к сообщению
а почему 125 kbps?

Потому что 2006 год, тогда не заморачивались с битрейтом звука.
Jordan7
Стаж: 1 год 5 мес.
Сообщений: 40
Ratio: 17.087
100%
а не в курсе где можно взять Хикару и Го от Руаниме?
Ampho_DnB ®
RG Аниме
Uploader 100+
Стаж: 9 лет
Сообщений: 3928
Ratio: 317.655
Поблагодарили: 91233
100%
Откуда: Душанбе
roody.gif
Jordan7 писал(а): Перейти к сообщению
а не в курсе где можно взять Хикару и Го от Руаниме?

В курсе, только ей никто не занимался.
ForSerer
Стаж: 10 лет 3 мес.
Сообщений: 12
Ratio: 4.516
100%
Откуда: Киров
russia.gif
в 5й серия русская дорожка от первой серии)
Ampho_DnB ®
RG Аниме
Uploader 100+
Стаж: 9 лет
Сообщений: 3928
Ratio: 317.655
Поблагодарили: 91233
100%
Откуда: Душанбе
roody.gif
ForSerer писал(а): Перейти к сообщению
в 5й серия русская дорожка от первой серии)

Знаю, уже поправил, обновлюсь с появлением новых серий.
Ampho_DnB ®
RG Аниме
Uploader 100+
Стаж: 9 лет
Сообщений: 3928
Ratio: 317.655
Поблагодарили: 91233
100%
Откуда: Душанбе
roody.gif
Торрент обновлён. Добавлены 27-52 серии.
Показать сообщения:   
Начать новую тему   Ответить на тему    Торрент-трекер NNM-Club -> Аниме с озвучкой -> Аниме с озвучкой (SD) Часовой пояс: GMT + 3
Страница 1 из 1